Sweet X Trouble | Anderson Silva Like Water 2012 DVDSCR Matrix-new | Сначала 2 (сезон второй) /...

Deadpool 2016 Esub 720p BluRay 5 1 Dual Audio English Hindi GOPISAHI torrent download

seeders: 336
leechers: 435
updated:
Added ago by PENDUDESI ***** in Movies
Torrent Downloaded 10 times.
Info Hash: FF020762D2A90337A9FB387C5FDE8D9A0BE4BA8F


Torrent Files

Deadpool 2016 Esub 720p BluRay 5 1 Dual Audio English Hindi GOPISAHI (Size: 525.0 MB)
  Deadpool 2016 Esub 720p BluRay 5 1 Dual Audio English Hindi GOPISAHI 525.0 MB

Torrent Description



http://www.gopisahi.pw

Format : Matroska

Format version : Version 4 / Version 2

File size : 525 MiB

Duration : 1 h 48 min

Overall bit rate : 678 kb/s

Movie name : Deadpool 2016 GOPISAHI


Video

Format : HEVC

Codec ID : V_MPEGH/ISO/HEVC

Duration : 1 h 48 min

Bit rate : 505 kb/s

Width : 1 280 pixels

Height : 536 pixels

Display aspect ratio : 2.40:1

Frame rate mode : Constant

Frame rate : 23.976 (24000/1001) FPS

Color space : YUV

Chroma subsampling : 4:2:0

Bit depth : 8 bits

Bits/(Pixel*Frame) : 0.031

Stream size : 390 MiB (74%)

Title : GOPISAHI

Writing library : x265 2.6:[Windows][GCC 7.2.0][64 bit] 8bit+10bit+12bit


Audio #1

Format : AAC

Duration : 1 h 48 min

Bit rate : 87.9 kb/s

Channel(s) : 6 channels

Channel positions : Front: L C R, Side: L R, LFE

Sampling rate : 44.1 kHz

Frame rate : 43.066 FPS (1024 SPF)

Compression mode : Lossy

Stream size : 68.0 MiB (13%)

Title : GOPISAHI

Language : Hindi


Audio #2

Format : AAC

Duration : 1 h 48 min

Bit rate : 83.2 kb/s

Channel(s) : 6 channels

Channel positions : Front: L C R, Side: L R, LFE

Sampling rate : 44.1 kHz

Frame rate : 43.066 FPS (1024 SPF)

Compression mode : Lossy

Stream size : 64.3 MiB (12%)

Title : GOPISAHI

Language : English


Text

Language : English







Related Torrents

torrent name size age seed leech
268.5 MB 1 minute 239 396
397.9 MB 2 minutes 62 253
327.0 MB 2 minutes 483 167
360.8 MB 2 minutes 342 105
453.3 MB 4 minutes 5 185

Sharing Widget


Download torrent
525.0 MB
seeders:1214
leechers:386
Deadpool 2016 Esub 720p BluRay 5 1 Dual Audio English Hindi GOPISAHI



To share this torrent use the code below and insert it into comments, status messages, forum posts or your signature.

Torrent: Deadpool 2016 Esub 720p BluRay 5 1 Dual Audio English Hindi GOPISAHI

Comments

Latest Searches